Final Fantasy The Spirits Within 2001 720p BRRip Dual Audio [Hind...

  • Category Movies
  • Type Dubs/Dual Audio
  • Language Hindi
  • Total size 813.7 MB
  • Uploaded By moviezworldz
  • Downloads 2193
  • Last checked 2 days ago
  • Date uploaded 6 days ago
  • Seeders 38
  • Leechers 15

Final Fantasy: The Spirits Within

ActionAdventureAnimationFantasyScience FictionThriller

Led by a strange dream, scientist Aki Ross struggles to collect the eight spirits in the hope of creating a force powerful enough to protect the planet. With the aid of the Deep Eyes Squadron and her mentor, Dr. Sid, Aki must save the Earth from its darkest hate and unleash the spirits within.

Infohash : 8FEB90696315E347741EBF4A7917AEDBE218DA56



General
Format : Matroska
Format version : Version 4 / Version 2
File size : 814 MiB
Duration : 1 h 45 min
Overall bit rate : 1 073 kb/s

Video
ID : 1
Format : AVC
Format/Info : Advanced Video Codec
Format profile : [email protected]
Format settings : CABAC / 8 Ref Frames
Format settings, CABAC : Yes
Format settings, RefFrames : 8 frames
Codec ID : V_MPEG4/ISO/AVC
Duration : 1 h 45 min
Bit rate : 829 kb/s
Width : 1 280 pixels
Height : 688 pixels
Display aspect ratio : 1.85:1
Frame rate mode : Constant
Frame rate : 23.976 (24000/1001) FPS
Color space : YUV
Chroma subsampling : 4:2:0
Bit depth : 8 bits
Scan type : Progressive
Bits/(Pixel*Frame) : 0.039
Stream size : 628 MiB (77%)
Writing library : x264 core 129 r2230 1cffe9f
Default : Yes
Forced : No

Audio #1
ID : 2
Format : AAC
Format/Info : Advanced Audio Codec
Format profile : LC
Codec ID : A_AAC-2
Duration : 1 h 39 min
Bit rate : 161 kb/s
Channel(s) : 2 channels
Channel positions : Front: L R
Sampling rate : 44.1 kHz
Frame rate : 43.066 FPS (1024 SPF)
Compression mode : Lossy
Stream size : 114 MiB (14%)
Language : Hindi
Default : Yes
Forced : No

Audio #2
ID : 3
Format : AAC
Format/Info : Advanced Audio Codec
Format profile : LC
Codec ID : A_AAC-2
Duration : 1 h 45 min
Bit rate : 92.0 kb/s
Channel(s) : 2 channels
Channel positions : Front: L R
Sampling rate : 48.0 kHz
Frame rate : 46.875 FPS (1024 SPF)
Compression mode : Lossy
Stream size : 69.7 MiB (9%)
Language : English
Default : No
Forced : No

Text
ID : 4
Format : UTF-8
Codec ID : S_TEXT/UTF8
Codec ID/Info : UTF-8 Plain Text
Duration : 1 h 36 min
Bit rate : 45 b/s
Count of elements : 989
Stream size : 31.9 KiB (0%)
Language : English
Default : Yes
Forced : No






Files:

Final Fantasy The Spirits Within 2001 720p BRRip Dual Audio [Hindi - English 2.0] ESub
  • Final Fantasy The Spirits Within 2001 720p BRRip Dual Audio [Hindi - English 2.0] ESub.mkv (813.7 MB)

There are currently no comments. Feel free to leave one :)

Code:

  • http://ipv4.tracker.harry.lu/announce
  • http://ipv4.tracker.harry.lu:80/announce
  • udp://tracker.pirateparty.gr:6969/announce
  • http://tracker.devil-torrents.pl:80/announce
  • http://tracker.devil-torrents.pl/announce
  • http://open.kickasstracker.com/announce
  • http://open.kickasstracker.com:443/announce
  • udp://p4p.arenabg.com:1337/announce
  • udp://9.rarbg.me:2770/announce
  • udp://9.rarbg.com:2740/announce
  • udp://9.rarbg.to:2750/announce
  • udp://tracker.coppersurfer.tk:6969/announce
  • udp://tracker.leechers-paradise.org:6969/announce
  • udp://tracker.zer0day.to:1337/announce
  • http://tracker.devil-torrents.pl/announce